AVI thumbnail creation failure.

Questions, comments and general discussion about Galleroo
Locked
heythere

AVI thumbnail creation failure.

Post by heythere » Mon Feb 02, 2009 9:25 pm

Hi there!

I had a Canon Powershop and then updated to a Canon IXUS. When creating galleries I noticed that the Powershot AVI's were given thumbnails but the IXUS were given a generic 'video' label image.

Here's two text outputs from Media info. The first is the Powershot era avi file and the second is the IXUS era avi file.

Just wondering what's stopping Galleroo creating theh thumbnails for the IXUS AVI.

Thanks!!!

.................
Thumbnail ok.
-----------------
Format : AVI
Format/Info : Audio Video Interleave
File size : 9.55 MiB
Duration : 16s 800ms
Overall bit rate : 4 771 Kbps
Mastered date : Sun Aug 10 11:39:35 2008
Writing application : CanonMVI01

Video
Format : M-JPEG
Codec ID : MJPG
Duration : 16s 800ms
Bit rate : 4 679 Kbps
Width : 640 pixels
Height : 480 pixels
Display aspect ratio : 4/3
Frame rate : 10.000 fps
Resolution : 24 bits
Scan type : Progressive
Bits/(Pixel*Frame) : 1.523
Stream size : 9.37 MiB (98%)

Audio
Format : PCM
Format settings, Endianness : Little
Format settings, Sign : Unsigned
Codec ID : 1
Codec ID/Hint : Microsoft
Duration : 16s 800ms
Bit rate mode : Constant
Bit rate : 88.2 Kbps
Channel(s) : 1 channel
Sampling rate : 11.024 KHz
Resolution : 8 bits
Stream size : 181 KiB (2%)
Interleave, duration : 988 ms (9.88 video frames)
Interleave, preload duration : 1000 ms


...........................
Thumbnail not created
---------------------------

Format : AVI
Format/Info : Audio Video Interleave
File size : 18.7 MiB
Duration : 10s 533ms
Overall bit rate : 14.9 Mbps
Mastered date : Sun Oct 5 10:07:05 2008
Writing application : CanonMVI06

Video
Format : M-JPEG
Codec ID : MJPG
Duration : 10s 533ms
Bit rate : 14.2 Mbps
Width : 640 pixels
Height : 480 pixels
Display aspect ratio : 4/3
Frame rate : 30.000 fps
Resolution : 24 bits
Scan type : Progressive
Bits/(Pixel*Frame) : 1.536
Stream size : 17.8 MiB (95%)

Audio
Format : PCM
Format settings, Endianness : Little
Format settings, Sign : Unsigned
Codec ID : 1
Codec ID/Hint : Microsoft
Duration : 10s 533ms
Bit rate mode : Constant
Bit rate : 705.6 Kbps
Channel(s) : 1 channel
Sampling rate : 44.1 KHz
Resolution : 16 bits
Stream size : 907 KiB (5%)
Interleave, duration : 958 ms (28.73 video frames)
Interleave, preload duration : 1000 ms

xyster
Site Admin
Posts: 605
Joined: Thu May 19, 2005 10:15 pm
Contact:

Re: AVI thumbnail creation failure.

Post by xyster » Mon Feb 02, 2009 11:03 pm

I'm no longer working on Galleroo.

Guest

Re: AVI thumbnail creation failure.

Post by Guest » Wed Feb 04, 2009 11:57 am

That's ok. It's a great piece of software despite that.

Will you be releasing the source code at all?

Thanks

xyster
Site Admin
Posts: 605
Joined: Thu May 19, 2005 10:15 pm
Contact:

Re: AVI thumbnail creation failure.

Post by xyster » Wed Feb 04, 2009 4:33 pm

I would not mind releasing it under the GPL but I don't have the time to package it for that.

Locked